<?xml version="1.0" standalone="no"?>
<!DOCTYPE svg PUBLIC "-//W3C//DTD SVG 1.1//EN" "http://www.w3.org/Graphics/SVG/1.1/DTD/svg11.dtd">
<svg xmlns="http://www.w3.org/2000/svg">
<defs >
<font id="SpaceMono" horiz-adv-x="612" ><font-face
    font-family="Space Mono"
    units-per-em="1000"
    panose-1="2 0 8 9 3 0 0 2 0 4"
    ascent="1120"
    descent="-361"
    alphabetic="0" />
<glyph unicode=" " glyph-name="space" />
<glyph unicode="!" glyph-name="exclam" d="M372 700V212H240V700H372ZM401 81Q401 61 394 44T373 14T343 -6T306 -14Q286 -14 269 -7T239 13T219 43T211 81Q211 101 218 118T239 148T269 168T306 176Q325 176 342 169T373 149T393 119T401 81Z" />
<glyph unicode="&quot;" glyph-name="quotedbl" d="M459 408H379V533Q355 544 340 567T324 620Q324 639 331 656T352 686T382 706T419 714Q438 714 455 707T486 687T506 657T514 620Q514 591 499 568T459 533V408ZM233 408H153V533Q129 544 114 567T98 620Q98
639 105 656T126 686T156 706T193 714Q212 714 229 707T260 687T280 657T288 620Q288 591 273 568T233 533V408Z" />
<glyph unicode="#" glyph-name="numbersign" d="M344 90V204H268V90H160V204H58V312H160V388H58V496H160V610H268V496H344V610H452V496H554V388H452V312H554V204H452V90H344ZM344 388H268V312H344V388Z" />
<glyph unicode="$" glyph-name="dollar" d="M354 606Q422 592 459 550T496 450V436H382V450Q382 462 376 473T354 493V403Q508 382 508 256V250Q508 183 468 141T354 90V28H258V93Q217 100 188 116T141 156T113 207T104 266V286H218V272Q218 249 227 232T258 205V313Q189
325 150 358T110 454V460Q110 494 122 519T154 563T201 593T258 609V672H354V606ZM394 248Q394 263 387 275T354 296V201Q377 208 385 221T394 248ZM224 460Q224 446 230 437T258 419V498Q240 492 232 482T224 460Z" />
<glyph unicode="%" glyph-name="percent" d="M338 562Q338 526 325 499T291 452T242 422T185 412Q156 412 129 422T80 451T45 498T32 562Q32 598 45 625T79 672T128 702T185 712Q214 712 241 702T290 673T325 626T338 562ZM185 496Q210 496 229 513T248 562Q248
594 229 611T185 628Q160 628 141 611T122 562Q122 530 141 513T185 496ZM580 138Q580 102 567 75T533 28T484 -2T427 -12Q398 -12 371 -2T322 27T287 74T274 138Q274 174 287 201T321 248T370 278T427 288Q456 288 483 278T532 249T567 202T580 138ZM427 72Q452
72 471 89T490 138Q490 170 471 187T427 204Q402 204 383 187T364 138Q364 106 383 89T427 72ZM521 510L562 432L90 190L49 268L521 510Z" />
<glyph unicode="&amp;" glyph-name="ampersand" d="M373 294H262Q220 294 194 273T168 210V204Q168 162 194 141T262 120H373V294ZM499 496V414H591V288H499V0H249Q199 0 160 14T95 52T56 110T42 183V195Q42 255 75 291T160 342V360Q109 374 76 410T42 506V518Q42
557 55 590T95 648T160 686T249 700H358V580H262Q220 580 194 561T168 500V494Q168 452 194 433T262 414H373V496H499Z" />
<glyph unicode="&apos;" glyph-name="quotesingle" d="M267 533Q242 544 227 567T211 620Q211 639 218 656T239 686T269 706T306 714Q325 714 342 707T372 687T392 657T400 620Q400 591 385 568T345 533V408H267V533Z" />
<glyph unicode="(" glyph-name="parenleft" d="M570 -30V-156H528Q454 -156 388 -135T271 -68T192 49T162 218V482Q162 580 191 651T271 767T387 834T528 856H570V730H534Q482 730 438 716T362 671T311 592T292 474V226Q292 157 310 109T361 29T438 -16T534 -30H570Z" />
<glyph unicode=")" glyph-name="parenright" d="M78 -30Q130 -30 174 -16T250 29T301 108T320 226V474Q320 543 302 591T251 671T174 716T78 730H42V856H84Q158 856 224 835T341 768T420 651T450 482V218Q450 120 421 49T341 -67T225 -134T84 -156H42V-30H78Z" />
<glyph unicode="*" glyph-name="asterisk" d="M448 141L375 214L342 288L326 281L354 208V102H258V208L286 281L270 288L237 214L164 141L97 208L170 281L244 314L237 330L164 302H58V398H164L237 370L244 386L170 419L97 492L164 559L237 486L270 412L286 419L258
492V598H354V492L326 419L342 412L375 486L448 559L515 492L442 419L368 386L375 370L448 398H554V302H448L375 330L368 314L442 281L515 208L448 141Z" />
<glyph unicode="+" glyph-name="plus" d="M97 407H249V559H363V407H515V293H363V141H249V293H97V407Z" />
<glyph unicode="," glyph-name="comma" d="M211 81Q211 100 218 117T239 147T269 167T306 175Q325 175 342 168T373 148T393 118T401 81V-41Q401 -79 376 -105T312 -131H248V-53H296Q323 -53 323 -23V-11Q315 -14 306 -14Q286 -14 269 -7T239 14T219 44T211 81Z" />
<glyph unicode="-" glyph-name="hyphen" d="M150 332H462V218H150V332Z" />
<glyph unicode="." glyph-name="period" d="M401 81Q401 61 394 44T373 14T343 -6T306 -14Q286 -14 269 -7T239 13T219 43T211 81Q211 101 218 118T239 148T269 168T306 176Q325 176 342 169T373 149T393 119T401 81Z" />
<glyph unicode="/" glyph-name="slash" d="M399 825L513 789L214 -125L99 -89L399 825Z" />
<glyph unicode="0" glyph-name="zero" d="M222 350Q222 384 247 409T306 434Q340 434 365 409T390 350Q390 316 365 291T306 266Q272 266 247 291T222 350ZM48 428Q48 564 116 639T306 714Q427 714 495 639T564 428V272Q564 132 496 59T306 -14Q185 -14 117 59T48
272V428ZM306 106Q342 106 366 117T405 150T426 200T432 264V436Q432 469 425 498T403 548T364 581T306 594Q272 594 248 582T209 548T187 498T180 436V264Q180 229 186 200T207 150T246 118T306 106Z" />
<glyph unicode="1" glyph-name="one" d="M264 126V634H246L180 394H54V406L138 700H396V126H570V0H66V126H264Z" />
<glyph unicode="2" glyph-name="two" d="M557 126V0H65V138Q65 193 81 232T128 298T202 342T299 372Q339 381 364 392T405 418T425 450T431 490Q431 532 401 560T316 588Q259 588 225 554T191 458V414H59V470Q59 519 76 563T126 641T206 694T312 714Q375 714 422
696T500 647T547 578T563 496V484Q563 396 514 338T352 254Q305 243 275 232T227 206T204 176T197 138V126H557Z" />
<glyph unicode="3" glyph-name="three" d="M238 300V508L412 556V574H64V700H520V480L334 426V408H358Q395 408 431 397T494 361T539 302T556 218V206Q556 159 541 119T495 50T419 3T316 -14Q257 -14 209 5T128 57T76 133T58 224V266H190V230Q190 182 221 147T314
112Q367 112 395 139T424 210Q424 257 394 278T316 300H238Z" />
<glyph unicode="4" glyph-name="four" d="M232 700H482V258H584V132H482V0H350V132H38V314L232 700ZM152 276V258H350V634H332L152 276Z" />
<glyph unicode="5" glyph-name="five" d="M66 312V700H534V574H198V384H216Q230 423 268 451T372 480Q421 480 460 463T526 416T567 344T582 252V246Q582 193 565 146T514 64T431 7T318 -14Q254 -14 205 3T123 52T72 127T54 222V246H186V234Q186 181 218 147T314
112Q377 112 413 146T450 240Q450 297 423 325T352 354Q323 354 305 342T282 312H66Z" />
<glyph unicode="6" glyph-name="six" d="M411 502Q411 537 386 562T306 588Q252 588 221 557T189 474V384H207Q224 419 262 440T348 462Q391 462 429 447T495 403T539 333T555 240V228Q555 175 538 131T488 54T409 4T306 -14Q254 -14 209 3T130 50T77 123T57 217V472Q57
527 77 572T131 648T209 697T304 714Q354 714 397 700T473 658T524 591T543 502H411ZM306 112Q357 112 390 142T423 224Q423 275 390 305T306 336Q255 336 222 306T189 224Q189 173 222 143T306 112Z" />
<glyph unicode="7" glyph-name="seven" d="M60 700H552V494L299 124Q279 94 268 73T256 24V0H114V30Q114 50 117 66T126 98T144 132T171 174L432 556V574H60V700Z" />
<glyph unicode="8" glyph-name="eight" d="M306 -14Q247 -14 200 0T120 41T69 102T51 182V188Q51 225 61 253T89 301T129 334T175 354V372Q154 380 135 393T101 424T78 468T69 526V532Q69 575 89 609T142 666T217 702T306 714Q352 714 394 702T470 667T523 609T543
532V526Q543 494 535 469T512 425T478 393T437 372V354Q461 347 483 334T522 301T550 253T561 188V182Q561 138 543 102T492 41T412 1T306 -14ZM306 112Q365 112 397 138T429 206Q429 247 397 273T306 300Q247 300 215 274T183 206Q183 165 215 139T306 112ZM306
588Q261 588 231 565T201 507Q201 472 231 449T306 426Q351 426 381 449T411 507Q411 542 381 565T306 588Z" />
<glyph unicode="9" glyph-name="nine" d="M201 198Q201 163 226 138T306 112Q360 112 391 143T423 226V316H405Q391 281 359 260T268 238Q223 238 185 254T118 301T73 373T57 466V478Q57 528 75 571T125 646T204 696T308 714Q360 714 405 697T484 650T536 577T555
483V228Q555 171 536 126T484 50T407 3T310 -14Q259 -14 215 0T139 42T88 109T69 198H201ZM306 588Q255 588 222 558T189 476Q189 425 222 395T306 364Q357 364 390 394T423 476Q423 527 390 557T306 588Z" />
<glyph unicode=":" glyph-name="colon" d="M401 81Q401 61 394 44T373 14T343 -6T306 -14Q286 -14 269 -7T239 13T219 43T211 81Q211 101 218 118T239 148T269 168T306 176Q325 176 342 169T373 149T393 119T401 81ZM401 415Q401 395 394 378T373 348T343 328T306
320Q286 320 269 327T239 347T219 377T211 415Q211 435 218 452T239 482T269 502T306 510Q325 510 342 503T373 483T393 453T401 415Z" />
<glyph unicode=";" glyph-name="semicolon" d="M211 81Q211 101 218 118T239 148T269 168T306 176Q325 176 342 169T373 149T393 119T401 81V-41Q401 -79 376 -105T312 -131H248V-53H296Q323 -53 323 -23V-11Q315 -14 306 -14Q286 -14 269 -7T239 13T219 43T211
81ZM401 415Q401 395 394 378T373 348T343 328T306 320Q286 320 269 327T239 347T219 377T211 415Q211 435 218 452T239 482T269 502T306 510Q325 510 342 503T373 483T393 453T401 415Z" />
<glyph unicode="&lt;" glyph-name="less" d="M97 246V454L515 570V450L175 359V341L515 250V130L97 246Z" />
<glyph unicode="=" glyph-name="equal" d="M97 494H515V380H97V494ZM97 320H515V206H97V320Z" />
<glyph unicode="&gt;" glyph-name="greater" d="M97 130V250L437 341V359L97 450V570L515 454V246L97 130Z" />
<glyph unicode="?" glyph-name="question" d="M328 390Q371 390 395 417T420 488Q420 530 391 559T312 588Q285 588 264 579T228 553T206 515T198 470V428H66V482Q66 527 82 569T130 643T208 694T314 714Q367 714 411 697T486 648T535 576T552 486V480Q552 439
540 402T504 337T447 292T371 275Q357 275 350 267T343 245V212H217V298Q217 337 243 363T309 390H328ZM376 81Q376 61 369 44T348 14T318 -6T281 -14Q261 -14 244 -7T214 13T194 43T186 81Q186 101 193 118T214 148T244 168T281 176Q300 176 317 169T348 149T368
119T376 81Z" />
<glyph unicode="@" glyph-name="at" d="M60 510V630H374Q472 630 530 578T588 422V82Q588 40 562 13T493 -14H370Q332 -14 315 2T294 42H276Q267 19 244 3T176 -14Q141 -14 112 -1T61 40T27 110T14 209V215Q14 272 27 314T63 383T116 424T182 438Q220 438 240
424T270 388H288V424H408V128Q408 100 435 100H441Q468 100 468 128V390Q468 510 348 510H60ZM212 100Q253 100 270 130T288 209V215Q288 263 271 293T212 324Q174 324 154 294T134 215V209Q134 161 154 131T212 100Z" />
<glyph unicode="A" glyph-name="A" d="M425 150H187L153 0H15L182 700H430L597 0H459L425 150ZM215 276H396L315 634H297L215 276Z" />
<glyph unicode="B" glyph-name="B" d="M46 126H112V574H46V700H353Q403 700 441 686T506 648T546 591T560 518V506Q560 446 527 410T442 360V342Q493 328 526 292T560 195V183Q560 144 547 111T507 53T442 14T353 0H46V126ZM244 126H340Q382 126 408 144T434 204V210Q434
252 408 270T340 288H244V126ZM244 414H340Q382 414 408 431T434 491V497Q434 539 408 556T340 574H244V414Z" />
<glyph unicode="C" glyph-name="C" d="M308 106Q346 106 370 117T408 148T427 193T432 246V264H564V246Q564 121 499 54T308 -14Q188 -14 118 59T48 272V428Q48 495 66 548T118 638T200 694T308 714Q370 714 418 696T498 644T547 562T564 454V436H432V454Q432
479 426 504T406 549T368 581T308 594Q275 594 251 582T211 548T188 498T180 438V262Q180 228 187 200T209 150T248 118T308 106Z" />
<glyph unicode="D" glyph-name="D" d="M46 700H300Q430 700 493 640T556 452V248Q556 121 493 61T300 0H46V127H112V574H46V700ZM300 126Q369 126 396 158T424 260V452Q424 512 397 543T300 574H244V126H300Z" />
<glyph unicode="E" glyph-name="E" d="M82 700H524V574H214V414H512V288H214V126H536V0H82V700Z" />
<glyph unicode="F" glyph-name="F" d="M88 700H536V574H220V414H530V288H220V0H88V700Z" />
<glyph unicode="G" glyph-name="G" d="M260 354H560V0H440V78H422Q410 39 376 13T274 -14Q226 -14 184 4T111 57T62 145T44 268V432Q44 500 63 552T117 641T200 695T306 714Q366 714 413 695T493 641T543 560T560 460V448H428V460Q428 523 396 555T304 588Q248
588 212 551T176 422V274Q176 112 308 112Q367 112 397 143T428 228H260V354Z" />
<glyph unicode="H" glyph-name="H" d="M61 700H193V414H419V700H551V0H419V288H193V0H61V700Z" />
<glyph unicode="I" glyph-name="I" d="M72 700H540V574H372V126H540V0H72V126H240V574H72V700Z" />
<glyph unicode="J" glyph-name="J" d="M517 210Q517 101 458 44T296 -14Q243 -14 200 0T126 43T78 113T61 210V276H193V210Q193 163 219 137T292 110Q336 110 360 136T385 210V576H313V700H577V576H517V210Z" />
<glyph unicode="K" glyph-name="K" d="M209 0H77V700H209V413H238L423 700H572V694L356 359V341L584 6V0H429L238 287H209V0Z" />
<glyph unicode="L" glyph-name="L" d="M82 700H214V126H532V0H82V700Z" />
<glyph unicode="M" glyph-name="M" d="M22 700H254L294 174V72H318V174L358 700H590V0H470V468L482 628H458L406 0H208L154 628H130L142 468V0H22V700Z" />
<glyph unicode="N" glyph-name="N" d="M401 66H419V700H551V0H293L211 634H193V0H61V700H319L401 66Z" />
<glyph unicode="O" glyph-name="O" d="M48 428Q48 564 116 639T306 714Q427 714 495 639T564 428V272Q564 132 496 59T306 -14Q185 -14 117 59T48 272V428ZM306 106Q342 106 366 117T405 150T426 200T432 264V436Q432 469 425 498T403 548T364 581T306 594Q272
594 248 582T209 548T187 498T180 436V264Q180 229 186 200T207 150T246 118T306 106Z" />
<glyph unicode="P" glyph-name="P" d="M204 264V0H72V700H346Q400 700 440 683T506 637T546 572T560 497V473Q560 434 547 397T507 330T440 282T346 264H204ZM204 390H333Q377 390 402 414T428 476V488Q428 526 403 550T333 574H204V390Z" />
<glyph unicode="Q" glyph-name="Q" d="M243 -8Q150 9 99 80T48 272V428Q48 564 116 639T306 714Q427 714 495 639T564 428V272Q564 151 513 80T369 -8V-26Q369 -54 394 -54H456V-174H338Q297 -174 270 -147T243 -78V-8ZM306 106Q342 106 366 118T405 151T426 201T432
266V434Q432 467 425 496T403 547T364 581T306 594Q272 594 248 582T209 547T187 496T180 434V266Q180 231 186 202T207 151T246 118T306 106Z" />
<glyph unicode="R" glyph-name="R" d="M543 0H411V210Q411 234 399 249T357 264H205V0H73V700H341Q395 700 436 685T504 644T546 582T561 507V483Q561 440 538 403T467 345V327Q502 323 522 300T543 242V0ZM205 390H331Q379 390 404 412T429 476V488Q429 523 404
548T331 574H205V390Z" />
<glyph unicode="S" glyph-name="S" d="M426 486Q426 528 394 559T302 590Q252 590 223 570T194 514Q194 496 201 482T225 456T271 435T344 418Q454 398 512 351T570 212V200Q570 151 553 112T502 44T422 1T316 -14Q247 -14 195 5T107 59T54 140T36 242V272H168V248Q168
185 204 148T318 110Q378 110 407 136T436 198Q436 215 430 230T409 258T368 281T302 298Q249 307 205 321T129 360T78 420T60 508V514Q60 557 77 593T126 657T202 699T302 714Q364 714 412 697T492 649T541 580T558 498V462H426V486Z" />
<glyph unicode="T" glyph-name="T" d="M54 700H558V574H372V0H240V574H54V700Z" />
<glyph unicode="U" glyph-name="U" d="M558 700V242Q558 122 495 54T306 -14Q181 -14 118 54T54 242V700H186V242Q186 180 215 145T306 110Q368 110 397 145T426 242V700H558Z" />
<glyph unicode="V" glyph-name="V" d="M24 700H160L297 66H315L452 700H588L430 0H182L24 700Z" />
<glyph unicode="W" glyph-name="W" d="M580 0H350L318 532V628H294V532L262 0H32L8 700H128L144 168V78H168V168L200 700H412L444 168V78H468V168L484 700H604L580 0Z" />
<glyph unicode="X" glyph-name="X" d="M176 700L294 414H318L436 700H579L435 360V342L579 0H436L318 288H294L176 0H33L177 342V360L33 700H176Z" />
<glyph unicode="Y" glyph-name="Y" d="M240 246H210L9 700H153L297 366H315L459 700H603L402 246H372V0H240V246Z" />
<glyph unicode="Z" glyph-name="Z" d="M53 700H551V484L155 144V126H563V0H47V216L443 556V574H53V700Z" />
<glyph unicode="[" glyph-name="bracketleft" d="M236 754Q236 799 264 827T338 856H470V736H389Q362 736 362 706V-6Q362 -36 389 -36H470V-156H338Q293 -156 265 -128T236 -54V754Z" />
<glyph unicode="\" glyph-name="backslash" d="M513 -89L398 -125L99 789L213 825L513 -89Z" />
<glyph unicode="]" glyph-name="bracketright" d="M376 -54Q376 -99 348 -127T274 -156H142V-36H223Q250 -36 250 -6V706Q250 736 223 736H142V856H274Q319 856 347 828T376 754V-54Z" />
<glyph unicode="^" glyph-name="asciicircum" d="M546 424H406L315 634H297L206 424H66L200 700H412L546 424Z" />
<glyph unicode="_" glyph-name="underscore" d="M61 -48H551V-162H61V-48Z" />
<glyph unicode="`" glyph-name="grave" d="M397 570H295L211 706H345L397 570Z" />
<glyph unicode="a" glyph-name="a" d="M399 72Q379 25 343 6T259 -14Q214 -14 175 3T105 53T58 133T40 240V256Q40 315 57 362T103 442T170 492T253 510Q306 510 338 492T390 436H408V496H534V150Q534 120 561 120H580V0H494Q460 0 439 20T417 72H399ZM287 106Q342
106 375 142T408 242V254Q408 317 375 353T287 390Q232 390 199 354T166 254V242Q166 179 199 143T287 106Z" />
<glyph unicode="b" glyph-name="b" d="M183 0H57V700H183V424H201Q221 465 259 487T356 510Q400 510 439 493T508 444T555 364T573 257V239Q573 178 556 131T510 52T442 3T356 -14Q322 -14 297 -7T254 12T223 39T201 72H183V0ZM315 106Q374 106 410 142T447 242V254Q447
317 411 353T315 390Q256 390 220 353T183 254V242Q183 181 219 144T315 106Z" />
<glyph unicode="c" glyph-name="c" d="M562 182Q545 94 482 40T312 -14Q257 -14 210 3T127 52T72 131T52 238V250Q52 310 72 358T127 440T210 492T312 510Q416 510 480 456T562 314L438 282Q432 326 400 358T310 390Q283 390 259 380T217 352T189 307T178 247V241Q178
208 188 183T217 140T259 115T310 106Q368 106 398 135T438 213L562 182Z" />
<glyph unicode="d" glyph-name="d" d="M434 72H416Q408 55 397 40T367 12T323 -7T261 -14Q215 -14 176 2T107 51T61 131T44 239V257Q44 317 61 364T109 443T180 493T266 510Q326 510 361 488T416 424H434V700H560V0H434V72ZM302 106Q361 106 397 143T434 242V254Q434
315 398 352T302 390Q243 390 207 354T170 254V242Q170 179 206 143T302 106Z" />
<glyph unicode="e" glyph-name="e" d="M189 207Q190 185 199 167T225 135T263 114T309 106Q356 106 381 122T417 162L525 102Q516 83 500 63T459 25T397 -3T311 -14Q255 -14 209 4T130 56T78 139T59 250V256Q59 313 78 360T132 440T211 491T309 510Q373 510 419
488T495 431T539 355T553 274V207H189ZM308 396Q260 396 230 372T191 315H425Q419 350 388 373T308 396Z" />
<glyph unicode="f" glyph-name="f" d="M74 496H215V598Q215 641 244 670T316 700H518V580H368Q341 580 341 550V496H536V376H341V0H215V376H74V496Z" />
<glyph unicode="g" glyph-name="g" d="M432 72H414Q406 55 395 40T365 12T321 -7T259 -14Q213 -14 174 2T105 51T59 131T42 239V257Q42 317 59 364T107 443T178 493T264 510Q324 510 359 488T414 424H432V496H558V-122Q558 -156 537 -178T481 -200H147V-80H405Q432
-80 432 -50V72ZM300 106Q359 106 395 143T432 242V254Q432 315 396 352T300 390Q241 390 205 354T168 254V242Q168 179 204 143T300 106Z" />
<glyph unicode="h" glyph-name="h" d="M206 0H80V700H206V416H224Q243 461 280 485T371 510Q408 510 439 498T493 462T529 401T542 312V0H416V282Q416 335 391 365T317 396Q261 396 234 359T206 258V0Z" />
<glyph unicode="i" glyph-name="i" d="M87 120H255V376H99V496H381V120H525V0H87V120ZM412 643Q412 623 405 606T384 576T354 556T317 548Q297 548 280 555T250 575T230 605T222 643Q222 663 229 680T250 710T280 730T317 738Q336 738 353 731T384 711T404 681T412 643Z" />
<glyph unicode="j" glyph-name="j" d="M126 496H444V-98Q444 -150 416 -175T343 -200H108V-80H288Q318 -80 318 -47V376H126V496ZM474 643Q474 623 467 606T446 576T416 556T379 548Q359 548 342 555T312 575T292 605T284 643Q284 663 291 680T312 710T342 730T379
738Q398 738 415 731T446 711T466 681T474 643Z" />
<glyph unicode="k" glyph-name="k" d="M244 314H268L400 496H538V490L378 263V245L554 6V0H410L268 194H244V0H118V700H244V314Z" />
<glyph unicode="l" glyph-name="l" d="M75 120H249V580H81V700H375V120H537V0H75V120Z" />
<glyph unicode="m" glyph-name="m" d="M576 0H450V348Q450 369 440 379T412 390Q392 390 381 378T369 342V0H243V348Q243 369 232 379T204 390Q186 390 174 378T162 342V0H36V496H162V448H180Q186 475 207 492T264 510Q297 510 320 493T351 448H369Q377 475 402
492T466 510Q516 510 546 477T576 384V0Z" />
<glyph unicode="n" glyph-name="n" d="M204 0H78V496H204V422H222Q239 464 277 487T366 510Q402 510 433 499T489 463T526 402T540 314V0H414V282Q414 335 389 365T315 396Q259 396 232 359T204 258V0Z" />
<glyph unicode="o" glyph-name="o" d="M564 242Q564 180 543 133T486 53T404 3T306 -14Q255 -14 209 3T126 52T69 132T48 242V254Q48 315 69 362T126 443T208 493T306 510Q357 510 403 493T486 443T543 363T564 254V242ZM306 106Q333 106 357 115T399 141T427
182T438 238V258Q438 289 428 313T399 355T357 381T306 390Q279 390 255 381T213 355T185 314T174 258V238Q174 207 184 183T213 141T255 115T306 106Z" />
<glyph unicode="p" glyph-name="p" d="M178 -200H52V496H178V424H196Q216 465 254 487T351 510Q395 510 434 493T503 444T550 364T568 257V239Q568 178 551 131T505 52T437 3T351 -14Q317 -14 292 -7T249 12T218 39T196 72H178V-200ZM310 106Q369 106 405 142T442
242V254Q442 317 406 353T310 390Q251 390 215 353T178 254V242Q178 181 214 144T310 106Z" />
<glyph unicode="q" glyph-name="q" d="M434 72H416Q408 55 397 40T367 12T323 -7T261 -14Q215 -14 176 2T107 51T61 131T44 239V257Q44 317 61 364T109 443T180 493T266 510Q326 510 361 488T416 424H434V496H560V-200H434V72ZM302 106Q361 106 397 143T434 242V254Q434
315 398 352T302 390Q243 390 207 354T170 254V242Q170 179 206 143T302 106Z" />
<glyph unicode="r" glyph-name="r" d="M54 496H264V424H282Q296 465 329 487T410 510Q484 510 529 464T574 322V300L444 288V302Q444 343 423 367T360 392Q318 392 294 363T270 280V120H384V0H42V120H144V376H54V496Z" />
<glyph unicode="s" glyph-name="s" d="M236 356Q236 332 261 322T352 304Q428 296 476 259T524 154V148Q524 74 470 30T318 -14Q260 -14 219 1T151 38T110 88T90 142L206 180Q214 148 239 124T318 100Q365 100 382 114T400 146Q400 156 396 164T379 180T347 193T295
201Q211 208 162 244T112 352V358Q112 395 128 423T170 470T230 500T300 510Q347 510 381 499T440 469T479 428T502 384L388 338Q379 365 357 380T300 396Q268 396 252 385T236 356Z" />
<glyph unicode="t" glyph-name="t" d="M64 496H211V700H337V496H516V376H337V150Q337 120 364 120H498V0H288Q254 0 233 22T211 78V376H64V496Z" />
<glyph unicode="u" glyph-name="u" d="M414 496H540V0H414V72H396Q363 -14 254 -14Q217 -14 185 -2T129 35T92 97T78 186V496H204V212Q204 159 229 130T304 100Q361 100 387 136T414 236V496Z" />
<glyph unicode="v" glyph-name="v" d="M43 496H179L296 60H314L431 496H567L425 0H185L43 496Z" />
<glyph unicode="w" glyph-name="w" d="M564 0H346L318 376V436H294V376L266 0H48L15 496H131L153 120V60H177V120L202 496H410L435 120V60H459V120L481 496H597L564 0Z" />
<glyph unicode="x" glyph-name="x" d="M407 496H546L426 263V245L553 0H408L315 194H297L204 0H59L186 245V263L65 496H205L297 314H315L407 496Z" />
<glyph unicode="y" glyph-name="y" d="M414 496H540V-122Q540 -156 519 -178T463 -200H168V-80H387Q414 -80 414 -50V72H396Q363 -14 254 -14Q217 -14 185 -2T129 35T92 97T78 186V496H204V212Q204 159 229 130T304 100Q361 100 387 136T414 236V496Z" />
<glyph unicode="z" glyph-name="z" d="M523 120V0H91V210L403 362V380H97V496H511V292L199 138V120H523Z" />
<glyph unicode="{" glyph-name="braceleft" d="M256 754Q256 799 284 827T358 856H490V736H409Q382 736 382 706V437Q382 403 361 381T304 359H298V341H304Q339 341 360 319T382 263V-6Q382 -36 409 -36H490V-156H358Q313 -156 285 -128T256 -54V249Q256 278 229
278H166V422H229Q256 422 256 451V754Z" />
<glyph unicode="|" glyph-name="bar" d="M366 -156H246V856H366V-156Z" />
<glyph unicode="}" glyph-name="braceright" d="M356 451Q356 422 383 422H446V278H383Q356 278 356 249V-54Q356 -99 328 -127T254 -156H122V-36H203Q230 -36 230 -6V263Q230 297 251 319T308 341H314V359H308Q273 359 252 381T230 437V706Q230 736 203 736H122V856H254Q299
856 327 828T356 754V451Z" />
<glyph unicode="~" glyph-name="asciitilde" d="M335 376Q347 356 355 349T377 341Q387 341 396 346T416 360L502 423L572 330L451 238Q434 224 412 214T362 203Q327 203 307 215T276 244Q264 264 256 271T234 279Q224 279 215 274T195 260L109 197L39 290L160
382Q177 396 199 406T249 417Q284 417 304 405T335 376Z" />
<glyph unicode="&#xa0;" glyph-name="uni00A0" />
<glyph unicode="&#xa1;" glyph-name="exclamdown" d="M372 -200V288H240V-200H372ZM401 419Q401 439 394 456T373 486T343 506T306 514Q286 514 269 507T239 487T219 457T211 419Q211 399 218 382T239 352T269 332T306 324Q325 324 342 331T373 351T393 381T401 419Z" />
<glyph unicode="&#xa2;" glyph-name="cent" d="M360 608Q438 596 490 546T554 422L442 396Q436 431 417 459T360 498V202Q398 213 417 242T444 304L556 278Q542 204 491 154T360 91V28H264V91Q220 98 182 118T116 170T72 245T56 342V354Q56 406 72 449T116 525T182
578T264 607V672H360V608ZM170 345Q170 289 196 254T264 204V495Q222 480 196 443T170 351V345Z" />
<glyph unicode="&#xa3;" glyph-name="sterling" d="M278 378H350V282H278V210H496V102H104V210H164V282H104V378H164V438Q164 523 211 567T336 612Q373 612 405 601T459 567T495 513T508 440V422H394V442Q394 466 381 485T336 504Q304 504 291 485T278 442V378Z" />
<glyph unicode="&#xa4;" glyph-name="currency" d="M56 350Q56 387 66 421T95 484L34 545L111 622L172 561Q201 579 234 589T306 600Q343 600 377 590T440 561L501 622L578 545L517 484Q535 455 545 421T556 350Q556 312 546 279T517 216L578 155L501 78L440 139Q411
120 377 110T306 100Q268 100 235 110T172 139L111 78L34 155L95 216Q76 245 66 278T56 350ZM164 350Q164 320 175 294T205 249T250 219T306 208Q336 208 362 219T407 249T437 294T448 350Q448 380 437 406T407 451T362 481T306 492Q276 492 250 481T205 451T175
406T164 350Z" />
<glyph unicode="&#xa5;" glyph-name="yen" d="M115 390H172L85 598H219L300 390H312L393 598H527L440 390H497V294H369V264H497V168H369V102H243V168H115V264H243V294H115V390Z" />
<glyph unicode="&#xa6;" glyph-name="brokenbar" d="M366 290V-156H246V290H366ZM246 410V856H366V410H246Z" />
<glyph unicode="&#xa7;" glyph-name="section" d="M352 598Q352 612 343 621T310 630Q292 630 283 623T274 606Q274 592 286 585T340 569Q394 559 423 531T452 452Q452 436 448 419T434 388Q439 379 442 366T446 336Q446 285 411 252T312 218Q241 218 205 255T168
347V353H258V347Q258 325 273 314T312 302Q336 302 346 311T356 332Q356 338 354 343T346 354T328 363T294 371Q272 375 251 383T214 404T188 438T178 486Q178 507 183 523T197 551Q191 563 188 575T184 606Q184 658 220 686T310 714Q342 714 367 705T408 681T433
644T442 600V594H352V598ZM356 441Q358 445 358 451Q358 465 349 474T311 491L275 499Q272 494 272 487Q272 477 280 468T320 450L356 441Z" />
<glyph unicode="&#xa8;" glyph-name="dieresis" d="M282 643Q282 623 275 606T254 576T224 556T187 548Q167 548 150 555T120 575T100 605T92 643Q92 663 99 680T120 710T150 730T187 738Q206 738 223 731T254 711T274 681T282 643ZM520 643Q520 623 513 606T492
576T462 556T425 548Q405 548 388 555T358 575T338 605T330 643Q330 663 337 680T358 710T388 730T425 738Q444 738 461 731T492 711T512 681T520 643Z" />
<glyph unicode="&#xa9;" glyph-name="copyright" d="M305 634Q288 634 281 624T273 602V510Q273 498 280 488T305 478Q322 478 329 488T337 510V526H415V510Q415 464 386 435T305 406Q256 406 226 435T195 510V602Q195 648 225 677T305 706Q356 706 385 677T415
602V586H337V602Q337 614 330 624T305 634ZM28 556Q28 613 50 664T109 752T198 812T306 834Q363 834 414 812T502 753T562 664T584 556Q584 499 562 448T503 360T414 300T306 278Q249 278 198 300T110 359T50 448T28 556ZM106 556Q106 514 121 478T164 414T227
372T306 356Q348 356 384 371T448 414T490 477T506 556Q506 598 491 634T448 698T385 740T306 756Q264 756 228 741T164 698T122 635T106 556Z" />
<glyph unicode="&#xaa;" glyph-name="ordfeminine" d="M347 446Q337 428 318 417T270 406Q243 406 219 416T177 445T149 492T138 556Q138 592 148 619T177 666T219 696T272 706Q302 706 319 697T347 672H356V700H436V507Q436 490 452 490H472V412H396Q378 412
368 421T356 446H347ZM287 484Q317 484 334 503T352 556Q352 589 335 608T287 628Q257 628 240 609T222 556Q222 523 239 504T287 484Z" />
<glyph unicode="&#xab;" glyph-name="guillemotleft" d="M294 0V142L120 239V257L294 354V496H288L42 344V152L288 0H294ZM570 0V142L396 239V257L570 354V496H564L318 344V152L564 0H570Z" />
<glyph unicode="&#xac;" glyph-name="logicalnot" d="M97 407H515V162H401V293H97V407Z" />
<glyph unicode="&#xae;" glyph-name="registered" d="M28 556Q28 613 50 664T109 752T198 812T306 834Q363 834 414 812T502 753T562 664T584 556Q584 499 562 448T503 360T414 300T306 278Q249 278 198 300T110 359T50 448T28 556ZM106 556Q106 514 121 478T164
414T227 372T306 356Q348 356 384 371T448 414T490 477T506 556Q506 598 491 634T448 698T385 740T306 756Q264 756 228 741T164 698T122 635T106 556ZM408 412H330V483Q330 494 324 501T305 508H294V412H216V700H322Q367 700 390 676T414 620Q414 567 374 551V542Q392
540 400 528T408 502V412ZM294 580H310Q336 580 336 604Q336 628 310 628H294V580Z" />
<glyph unicode="&#xaf;" glyph-name="overscore" d="M453 570H159V672H453V570Z" />
<glyph unicode="&#xb0;" glyph-name="degree" d="M149 569Q149 602 161 630T195 680T244 713T306 726Q339 726 367 714T417 680T450 631T463 569Q463 536 451 508T417 458T368 425T306 412Q273 412 245 424T195 458T162 507T149 569ZM257 569Q257 549 271 535T306
520Q326 520 340 534T355 569Q355 589 341 603T306 618Q286 618 272 604T257 569Z" />
<glyph unicode="&#xb1;" glyph-name="plusminus" d="M97 407H249V559H363V407H515V293H363V162H249V293H97V407ZM97 114H515V0H97V114Z" />
<glyph unicode="&#xb2;" glyph-name="twosuperior" d="M413 484V412H200V478Q200 500 207 516T227 544T255 563T288 574Q321 582 329 589T338 608Q338 619 331 626T309 634Q278 634 278 598H200V604Q200 651 230 678T313 706Q360 706 388 679T416 616Q416 575
396 554T344 524Q305 513 292 506T278 484H413Z" />
<glyph unicode="&#xb3;" glyph-name="threesuperior" d="M200 512H278V506Q278 492 286 485T308 478Q322 478 330 485T338 506Q338 536 304 536H278V606L324 621V630H209V700H402V602L356 585V576Q379 571 397 553T416 502Q416 459 388 433T312 406Q255 406 228
435T200 500V512Z" />
<glyph unicode="&#xb4;" glyph-name="acute" d="M267 706H401L317 570H215L267 706Z" />
<glyph unicode="&#xb5;" glyph-name="mu" d="M411 30H393Q383 10 362 -2T306 -14Q271 -14 250 -2T219 30H201V-200H75V496H201V220Q201 195 206 174T223 136T256 110T306 100Q336 100 356 109T388 135T406 173T411 220V496H537V0H411V30Z" />
<glyph unicode="&#xb6;" glyph-name="paragraph" d="M261 424H249Q219 424 193 435T147 466T116 512T105 569Q105 599 116 625T146 671T192 702T249 714H507V218H399V612H369V218H261V424ZM261 526V612H249Q232 612 220 602T207 569Q207 547 219 537T249 526H261Z" />
<glyph unicode="&#xb7;" glyph-name="middot" d="M401 350Q401 330 394 313T373 283T343 263T306 255Q286 255 269 262T239 282T219 312T211 350Q211 370 218 387T239 417T269 437T306 445Q325 445 342 438T373 418T393 388T401 350Z" />
<glyph unicode="&#xb8;" glyph-name="cedilla" d="M300 0L290 -46H302Q307 -37 318 -31T348 -24Q390 -24 410 -50T431 -112Q431 -159 400 -185T321 -212Q292 -212 273 -207T237 -192L263 -124Q286 -138 313 -138Q328 -138 337 -131T347 -112Q347 -103 342 -97T327
-90Q310 -90 307 -104H210V-92L230 0H300Z" />
<glyph unicode="&#xb9;" glyph-name="onesuperior" d="M282 484V616H276L204 556H198V646L270 700H360V484H432V412H204V484H282Z" />
<glyph unicode="&#xba;" glyph-name="ordmasculine" d="M157 556Q157 593 169 621T201 668T249 696T306 706Q336 706 363 697T410 668T443 621T455 556Q455 519 443 491T411 444T363 416T306 406Q276 406 249 415T202 444T169 491T157 556ZM306 484Q337 484 354
503T371 556Q371 589 354 608T306 628Q275 628 258 609T241 556Q241 523 258 504T306 484Z" />
<glyph unicode="&#xbb;" glyph-name="guillemotright" d="M43 0V142L217 239V257L43 354V496H49L295 344V152L49 0H43ZM318 0V142L492 239V257L318 354V496H324L570 344V152L324 0H318Z" />
<glyph unicode="&#xbc;" glyph-name="onequarter" d="M532 510L573 432L101 190L60 268L532 510ZM137 484V616H131L59 556H53V646L125 700H215V484H287V412H59V484H137ZM405 289H543V119H585V49H543V1H465V49H335V146L405 289ZM405 128V119H465V237H456L405 128Z" />
<glyph unicode="&#xbd;" glyph-name="onehalf" d="M135 484V616H129L57 556H51V646L123 700H213V484H285V412H57V484H135ZM568 73V1H355V67Q355 89 362 105T382 133T410 152T443 163Q476 171 484 178T493 197Q493 208 486 215T464 223Q433 223 433 187H355V193Q355
240 385 267T468 295Q515 295 543 268T571 205Q571 164 551 143T499 113Q460 102 447 95T433 73H568ZM530 510L571 432L99 190L58 268L530 510Z" />
<glyph unicode="&#xbe;" glyph-name="threequarters" d="M525 510L566 432L94 190L53 268L525 510ZM47 512H125V506Q125 492 133 485T155 478Q169 478 177 485T185 506Q185 536 151 536H125V606L171 621V630H56V700H249V602L203 585V576Q226 571 244 553T263 502Q263
459 235 433T159 406Q102 406 75 435T47 500V512ZM398 289H536V119H578V49H536V1H458V49H328V146L398 289ZM398 128V119H458V237H449L398 128Z" />
<glyph unicode="&#xbf;" glyph-name="questiondown" d="M287 110Q244 110 220 83T195 12Q195 -30 224 -59T303 -88Q330 -88 351 -79T387 -53T409 -15T417 30V72H549V18Q549 -27 533 -69T485 -143T407 -194T301 -214Q248 -214 204 -197T129 -148T80 -76T63 14V20Q63
61 75 98T111 163T168 208T244 225Q258 225 265 233T272 255V288H398V202Q398 163 372 137T306 110H287ZM239 419Q239 439 246 456T267 486T297 506T334 514Q354 514 371 507T401 487T421 457T429 419Q429 399 422 382T401 352T371 332T334 324Q315 324 298 331T267
351T247 381T239 419Z" />
<glyph unicode="&#xc0;" glyph-name="Agrave" d="M425 150H187L153 0H15L182 700H430L597 0H459L425 150ZM215 276H396L315 634H297L215 276ZM358 774H256L172 910H306L358 774Z" />
<glyph unicode="&#xc1;" glyph-name="Aacute" d="M425 150H187L153 0H15L182 700H430L597 0H459L425 150ZM215 276H396L315 634H297L215 276ZM307 910H441L357 774H255L307 910Z" />
<glyph unicode="&#xc2;" glyph-name="Acircumflex" d="M425 150H187L153 0H15L182 700H430L597 0H459L425 150ZM215 276H396L315 634H297L215 276ZM355 774L312 862H300L257 774H136L220 910H392L476 774H355Z" />
<glyph unicode="&#xc3;" glyph-name="Atilde" d="M425 150H187L153 0H15L182 700H430L597 0H459L425 150ZM215 276H396L315 634H297L215 276ZM322 893Q330 884 338 877T360 869Q374 869 382 875T399 893L429 931L506 870L450 798Q432 775 411 765T364 754Q344
754 326 763T290 792Q282 801 274 808T252 816Q238 816 230 810T213 792L183 754L106 815L162 887Q181 911 202 921T248 931Q268 931 286 922T322 893Z" />
<glyph unicode="&#xc4;" glyph-name="Adieresis" d="M425 150H187L153 0H15L182 700H430L597 0H459L425 150ZM215 276H396L315 634H297L215 276ZM282 843Q282 823 275 806T254 776T224 756T187 748Q167 748 150 755T120 775T100 805T92 843Q92 863 99 880T120
910T150 930T187 938Q206 938 223 931T254 911T274 881T282 843ZM520 843Q520 823 513 806T492 776T462 756T425 748Q405 748 388 755T358 775T338 805T330 843Q330 863 337 880T358 910T388 930T425 938Q444 938 461 931T492 911T512 881T520 843Z" />
<glyph unicode="&#xc5;" glyph-name="Aring" d="M425 150H187L153 0H15L182 700H430L597 0H459L425 150ZM215 276H396L315 634H297L215 276ZM198 876Q198 898 206 918T229 952T263 975T306 984Q328 984 348 976T382 953T405 918T414 876Q414 853 406 834T383 800T348
777T306 768Q283 768 264 776T230 799T207 833T198 876ZM276 876Q276 863 284 855T306 846Q319 846 327 854T336 876Q336 889 328 897T306 906Q293 906 285 898T276 876Z" />
<glyph unicode="&#xc6;" glyph-name="AE" d="M286 150H172L138 0H0L167 700H590V574H418V414H584V288H418V126H596V0H286V150ZM200 276H286V574H268L200 276Z" />
<glyph unicode="&#xc7;" glyph-name="Ccedilla" d="M308 106Q346 106 370 117T408 148T427 193T432 246V264H564V246Q564 129 507 63T340 -13L333 -46H345Q350 -37 361 -31T391 -24Q433 -24 453 -50T474 -112Q474 -159 443 -185T364 -212Q335 -212 316 -207T280
-192L306 -124Q329 -138 356 -138Q371 -138 380 -131T390 -112Q390 -103 385 -97T370 -90Q353 -90 350 -104H253V-92L270 -12Q166 -1 107 71T48 272V428Q48 495 66 548T118 638T200 694T308 714Q370 714 418 696T498 644T547 562T564 454V436H432V454Q432 479 426
504T406 549T368 581T308 594Q275 594 251 582T211 548T188 498T180 438V262Q180 228 187 200T209 150T248 118T308 106Z" />
<glyph unicode="&#xc8;" glyph-name="Egrave" d="M82 700H524V574H214V414H512V288H214V126H536V0H82V700ZM366 774H264L180 910H314L366 774Z" />
<glyph unicode="&#xc9;" glyph-name="Eacute" d="M82 700H524V574H214V414H512V288H214V126H536V0H82V700ZM309 910H443L359 774H257L309 910Z" />
<glyph unicode="&#xca;" glyph-name="Ecircumflex" d="M82 700H524V574H214V414H512V288H214V126H536V0H82V700ZM353 774L310 862H298L255 774H134L218 910H390L474 774H353Z" />
<glyph unicode="&#xcb;" glyph-name="Edieresis" d="M82 700H524V574H214V414H512V288H214V126H536V0H82V700ZM280 843Q280 823 273 806T252 776T222 756T185 748Q165 748 148 755T118 775T98 805T90 843Q90 863 97 880T118 910T148 930T185 938Q204 938 221 931T252
911T272 881T280 843ZM518 843Q518 823 511 806T490 776T460 756T423 748Q403 748 386 755T356 775T336 805T328 843Q328 863 335 880T356 910T386 930T423 938Q442 938 459 931T490 911T510 881T518 843Z" />
<glyph unicode="&#xcc;" glyph-name="Igrave" d="M72 700H540V574H372V126H540V0H72V126H240V574H72V700ZM351 774H249L165 910H299L351 774Z" />
<glyph unicode="&#xcd;" glyph-name="Iacute" d="M72 700H540V574H372V126H540V0H72V126H240V574H72V700ZM308 910H442L358 774H256L308 910Z" />
<glyph unicode="&#xce;" glyph-name="Icircumflex" d="M72 700H540V574H372V126H540V0H72V126H240V574H72V700ZM355 774L312 862H300L257 774H136L220 910H392L476 774H355Z" />
<glyph unicode="&#xcf;" glyph-name="Idieresis" d="M72 700H540V574H372V126H540V0H72V126H240V574H72V700ZM282 843Q282 823 275 806T254 776T224 756T187 748Q167 748 150 755T120 775T100 805T92 843Q92 863 99 880T120 910T150 930T187 938Q206 938 223 931T254
911T274 881T282 843ZM520 843Q520 823 513 806T492 776T462 756T425 748Q405 748 388 755T358 775T338 805T330 843Q330 863 337 880T358 910T388 930T425 938Q444 938 461 931T492 911T512 881T520 843Z" />
<glyph unicode="&#xd0;" glyph-name="Eth" d="M46 410H112V574H46V700H300Q430 700 493 640T556 452V248Q556 121 493 61T300 0H46V126H112V290H46V410ZM300 126Q369 126 396 158T424 260V452Q424 512 397 543T300 574H244V410H342V290H244V126H300Z" />
<glyph unicode="&#xd1;" glyph-name="Ntilde" d="M401 66H419V700H551V0H293L211 634H193V0H61V700H319L401 66ZM328 891Q336 882 344 875T366 867Q380 867 388 873T405 891L435 929L512 868L456 796Q438 773 417 763T370 752Q350 752 332 761T296 790Q288 799
280 806T258 814Q244 814 236 808T219 790L189 752L112 813L168 885Q187 909 208 919T254 929Q274 929 292 920T328 891Z" />
<glyph unicode="&#xd2;" glyph-name="Ograve" d="M48 428Q48 564 116 639T306 714Q427 714 495 639T564 428V272Q564 132 496 59T306 -14Q185 -14 117 59T48 272V428ZM306 106Q342 106 366 117T405 150T426 200T432 264V436Q432 469 425 498T403 548T364 581T306
594Q272 594 248 582T209 548T187 498T180 436V264Q180 229 186 200T207 150T246 118T306 106ZM359 774H257L173 910H307L359 774Z" />
<glyph unicode="&#xd3;" glyph-name="Oacute" d="M48 428Q48 564 116 639T306 714Q427 714 495 639T564 428V272Q564 132 496 59T306 -14Q185 -14 117 59T48 272V428ZM306 106Q342 106 366 117T405 150T426 200T432 264V436Q432 469 425 498T403 548T364 581T306
594Q272 594 248 582T209 548T187 498T180 436V264Q180 229 186 200T207 150T246 118T306 106ZM306 910H440L356 774H254L306 910Z" />
<glyph unicode="&#xd4;" glyph-name="Ocircumflex" d="M48 428Q48 564 116 639T306 714Q427 714 495 639T564 428V272Q564 132 496 59T306 -14Q185 -14 117 59T48 272V428ZM306 106Q342 106 366 117T405 150T426 200T432 264V436Q432 469 425 498T403 548T364
581T306 594Q272 594 248 582T209 548T187 498T180 436V264Q180 229 186 200T207 150T246 118T306 106ZM355 774L312 862H300L257 774H136L220 910H392L476 774H355Z" />
<glyph unicode="&#xd5;" glyph-name="Otilde" d="M48 428Q48 564 116 639T306 714Q427 714 495 639T564 428V272Q564 132 496 59T306 -14Q185 -14 117 59T48 272V428ZM306 106Q342 106 366 117T405 150T426 200T432 264V436Q432 469 425 498T403 548T364 581T306
594Q272 594 248 582T209 548T187 498T180 436V264Q180 229 186 200T207 150T246 118T306 106ZM322 893Q330 884 338 877T360 869Q374 869 382 875T399 893L429 931L506 870L450 798Q432 775 411 765T364 754Q344 754 326 763T290 792Q282 801 274 808T252 816Q238
816 230 810T213 792L183 754L106 815L162 887Q181 911 202 921T248 931Q268 931 286 922T322 893Z" />
<glyph unicode="&#xd6;" glyph-name="Odieresis" d="M48 428Q48 564 116 639T306 714Q427 714 495 639T564 428V272Q564 132 496 59T306 -14Q185 -14 117 59T48 272V428ZM306 106Q342 106 366 117T405 150T426 200T432 264V436Q432 469 425 498T403 548T364 581T306
594Q272 594 248 582T209 548T187 498T180 436V264Q180 229 186 200T207 150T246 118T306 106ZM282 843Q282 823 275 806T254 776T224 756T187 748Q167 748 150 755T120 775T100 805T92 843Q92 863 99 880T120 910T150 930T187 938Q206 938 223 931T254 911T274
881T282 843ZM520 843Q520 823 513 806T492 776T462 756T425 748Q405 748 388 755T358 775T338 805T330 843Q330 863 337 880T358 910T388 930T425 938Q444 938 461 931T492 911T512 881T520 843Z" />
<glyph unicode="&#xd7;" glyph-name="multiply" d="M520 481L388 350L520 219L439 138L306 269L173 138L92 219L224 350L92 481L173 562L306 431L439 562L520 481Z" />
<glyph unicode="&#xd8;" glyph-name="Oslash" d="M48 428Q48 564 116 639T306 714Q337 714 366 708L390 781L499 747L471 661Q516 624 540 566T564 428V272Q564 132 496 59T306 -14Q274 -14 251 -10L224 -93L114 -59L144 34Q97 69 73 128T48 272V428ZM180 264Q180
239 182 218T192 179L328 592Q323 593 317 593T306 594Q272 594 248 582T209 548T187 498T180 436V264ZM306 106Q342 106 366 117T405 150T426 200T432 264V436Q432 456 430 474T421 510L289 106H306Z" />
<glyph unicode="&#xd9;" glyph-name="Ugrave" d="M558 700V242Q558 122 495 54T306 -14Q181 -14 118 54T54 242V700H186V242Q186 180 215 145T306 110Q368 110 397 145T426 242V700H558ZM357 774H255L171 910H305L357 774Z" />
<glyph unicode="&#xda;" glyph-name="Uacute" d="M558 700V242Q558 122 495 54T306 -14Q181 -14 118 54T54 242V700H186V242Q186 180 215 145T306 110Q368 110 397 145T426 242V700H558ZM308 910H442L358 774H256L308 910Z" />
<glyph unicode="&#xdb;" glyph-name="Ucircumflex" d="M558 700V242Q558 122 495 54T306 -14Q181 -14 118 54T54 242V700H186V242Q186 180 215 145T306 110Q368 110 397 145T426 242V700H558ZM355 774L312 862H300L257 774H136L220 910H392L476 774H355Z" />
<glyph unicode="&#xdc;" glyph-name="Udieresis" d="M558 700V242Q558 122 495 54T306 -14Q181 -14 118 54T54 242V700H186V242Q186 180 215 145T306 110Q368 110 397 145T426 242V700H558ZM282 843Q282 823 275 806T254 776T224 756T187 748Q167 748 150 755T120
775T100 805T92 843Q92 863 99 880T120 910T150 930T187 938Q206 938 223 931T254 911T274 881T282 843ZM520 843Q520 823 513 806T492 776T462 756T425 748Q405 748 388 755T358 775T338 805T330 843Q330 863 337 880T358 910T388 930T425 938Q444 938 461 931T492
911T512 881T520 843Z" />
<glyph unicode="&#xdd;" glyph-name="Yacute" d="M240 246H210L9 700H153L297 366H315L459 700H603L402 246H372V0H240V246ZM317 910H451L367 774H265L317 910Z" />
<glyph unicode="&#xde;" glyph-name="Thorn" d="M202 132V0H70V700H202V568H344Q398 568 438 551T504 505T544 440T558 365V341Q558 302 545 265T505 198T438 150T344 132H202ZM202 258H331Q375 258 400 282T426 344V356Q426 394 401 418T331 442H202V258Z" />
<glyph unicode="&#xdf;" glyph-name="germandbls" d="M350 346H394Q429 346 463 336T523 304T566 248T582 166V160Q582 122 570 91T535 36T478 -1T400 -14Q360 -14 330 -2T278 30T245 77T230 132L352 156Q354 135 366 121T404 106Q430 106 443 122T456 164Q456
203 431 220T360 238H266V466H304Q334 466 354 481T374 528Q374 557 352 575T294 594Q252 594 226 569T200 496V0H74V376H14V496H74V514Q74 563 91 600T138 663T207 701T290 714Q333 714 371 702T438 665T483 608T500 532V526Q500 487 489 458T457 408T409 377T350
364V346Z" />
<glyph unicode="&#xe0;" glyph-name="agrave" d="M399 72Q379 25 343 6T259 -14Q214 -14 175 3T105 53T58 133T40 240V256Q40 315 57 362T103 442T170 492T253 510Q306 510 338 492T390 436H408V496H534V150Q534 120 561 120H580V0H494Q460 0 439 20T417 72H399ZM287
106Q342 106 375 142T408 242V254Q408 317 375 353T287 390Q232 390 199 354T166 254V242Q166 179 199 143T287 106ZM561 570H459L375 706H509L561 570Z" />
<glyph unicode="&#xe1;" glyph-name="aacute" d="M399 72Q379 25 343 6T259 -14Q214 -14 175 3T105 53T58 133T40 240V256Q40 315 57 362T103 442T170 492T253 510Q306 510 338 492T390 436H408V496H534V150Q534 120 561 120H580V0H494Q460 0 439 20T417 72H399ZM287
106Q342 106 375 142T408 242V254Q408 317 375 353T287 390Q232 390 199 354T166 254V242Q166 179 199 143T287 106ZM511 706H645L561 570H459L511 706Z" />
<glyph unicode="&#xe2;" glyph-name="acircumflex" d="M399 72Q379 25 343 6T259 -14Q214 -14 175 3T105 53T58 133T40 240V256Q40 315 57 362T103 442T170 492T253 510Q306 510 338 492T390 436H408V496H534V150Q534 120 561 120H580V0H494Q460 0 439 20T417
72H399ZM287 106Q342 106 375 142T408 242V254Q408 317 375 353T287 390Q232 390 199 354T166 254V242Q166 179 199 143T287 106ZM559 570L516 658H504L461 570H340L424 706H596L680 570H559Z" />
<glyph unicode="&#xe3;" glyph-name="atilde" d="M399 72Q379 25 343 6T259 -14Q214 -14 175 3T105 53T58 133T40 240V256Q40 315 57 362T103 442T170 492T253 510Q306 510 338 492T390 436H408V496H534V150Q534 120 561 120H580V0H494Q460 0 439 20T417 72H399ZM287
106Q342 106 375 142T408 242V254Q408 317 375 353T287 390Q232 390 199 354T166 254V242Q166 179 199 143T287 106ZM324 946Q332 937 340 930T362 922Q376 922 384 928T401 946L431 984L508 923L452 851Q434 828 413 818T366 807Q346 807 328 816T292 845Q284
854 276 861T254 869Q240 869 232 863T215 845L185 807L108 868L164 940Q183 964 204 974T250 984Q270 984 288 975T324 946Z" />
<glyph unicode="&#xe4;" glyph-name="adieresis" d="M399 72Q379 25 343 6T259 -14Q214 -14 175 3T105 53T58 133T40 240V256Q40 315 57 362T103 442T170 492T253 510Q306 510 338 492T390 436H408V496H534V150Q534 120 561 120H580V0H494Q460 0 439 20T417 72H399ZM287
106Q342 106 375 142T408 242V254Q408 317 375 353T287 390Q232 390 199 354T166 254V242Q166 179 199 143T287 106ZM520 643Q520 623 513 606T492 576T462 556T425 548Q405 548 388 555T358 575T338 605T330 643Q330 663 337 680T358 710T388 730T425 738Q444
738 461 731T492 711T512 681T520 643ZM758 643Q758 623 751 606T730 576T700 556T663 548Q643 548 626 555T596 575T576 605T568 643Q568 663 575 680T596 710T626 730T663 738Q682 738 699 731T730 711T750 681T758 643Z" />
<glyph unicode="&#xe5;" glyph-name="aring" d="M399 72Q379 25 343 6T259 -14Q214 -14 175 3T105 53T58 133T40 240V256Q40 315 57 362T103 442T170 492T253 510Q306 510 338 492T390 436H408V496H534V150Q534 120 561 120H580V0H494Q460 0 439 20T417 72H399ZM287
106Q342 106 375 142T408 242V254Q408 317 375 353T287 390Q232 390 199 354T166 254V242Q166 179 199 143T287 106ZM402 676Q402 698 410 718T433 752T467 775T510 784Q532 784 552 776T586 753T609 718T618 676Q618 653 610 634T587 600T552 577T510 568Q487
568 468 576T434 599T411 633T402 676ZM480 676Q480 663 488 655T510 646Q523 646 531 654T540 676Q540 689 532 697T510 706Q497 706 489 698T480 676Z" />
<glyph unicode="&#xe6;" glyph-name="ae" d="M182 147Q182 127 195 117T228 106H240V188H228Q208 188 195 178T182 147ZM432 308Q432 341 414 361T366 386V308H432ZM298 510Q360 510 408 492T490 442T540 367T558 272V188H366V110Q390 110 409 120T438 152L540
88Q510 34 454 10T313 -14H284Q235 -14 194 -5T122 23T74 73T56 146V158Q56 193 70 221T108 268T163 298T230 308H240V386Q220 386 201 372T170 338L88 424Q121 466 172 488T298 510Z" />
<glyph unicode="&#xe7;" glyph-name="ccedilla" d="M562 182Q546 100 491 48T341 -12L334 -46H346Q351 -37 362 -31T392 -24Q434 -24 454 -50T475 -112Q475 -159 444 -185T365 -212Q336 -212 317 -207T281 -192L307 -124Q330 -138 357 -138Q372 -138 381 -131T391
-112Q391 -103 386 -97T371 -90Q354 -90 351 -104H254V-92L271 -11Q224 -5 184 14T114 64T69 140T52 238V250Q52 310 72 358T127 440T210 492T312 510Q416 510 480 456T562 314L438 282Q432 326 400 358T310 390Q283 390 259 380T217 352T189 307T178 247V241Q178
208 188 183T217 140T259 115T310 106Q368 106 398 135T438 213L562 182Z" />
<glyph unicode="&#xe8;" glyph-name="egrave" d="M189 207Q190 185 199 167T225 135T263 114T309 106Q356 106 381 122T417 162L525 102Q516 83 500 63T459 25T397 -3T311 -14Q255 -14 209 4T130 56T78 139T59 250V256Q59 313 78 360T132 440T211 491T309 510Q373
510 419 488T495 431T539 355T553 274V207H189ZM308 396Q260 396 230 372T191 315H425Q419 350 388 373T308 396ZM618 570H516L432 706H566L618 570Z" />
<glyph unicode="&#xe9;" glyph-name="eacute" d="M189 207Q190 185 199 167T225 135T263 114T309 106Q356 106 381 122T417 162L525 102Q516 83 500 63T459 25T397 -3T311 -14Q255 -14 209 4T130 56T78 139T59 250V256Q59 313 78 360T132 440T211 491T309 510Q373
510 419 488T495 431T539 355T553 274V207H189ZM308 396Q260 396 230 372T191 315H425Q419 350 388 373T308 396ZM311 706H445L361 570H259L311 706Z" />
<glyph unicode="&#xea;" glyph-name="ecircumflex" d="M189 207Q190 185 199 167T225 135T263 114T309 106Q356 106 381 122T417 162L525 102Q516 83 500 63T459 25T397 -3T311 -14Q255 -14 209 4T130 56T78 139T59 250V256Q59 313 78 360T132 440T211 491T309
510Q373 510 419 488T495 431T539 355T553 274V207H189ZM308 396Q260 396 230 372T191 315H425Q419 350 388 373T308 396ZM359 570L316 658H304L261 570H140L224 706H396L480 570H359Z" />
<glyph unicode="&#xeb;" glyph-name="edieresis" d="M189 207Q190 185 199 167T225 135T263 114T309 106Q356 106 381 122T417 162L525 102Q516 83 500 63T459 25T397 -3T311 -14Q255 -14 209 4T130 56T78 139T59 250V256Q59 313 78 360T132 440T211 491T309 510Q373
510 419 488T495 431T539 355T553 274V207H189ZM308 396Q260 396 230 372T191 315H425Q419 350 388 373T308 396ZM286 643Q286 623 279 606T258 576T228 556T191 548Q171 548 154 555T124 575T104 605T96 643Q96 663 103 680T124 710T154 730T191 738Q210 738 227
731T258 711T278 681T286 643ZM524 643Q524 623 517 606T496 576T466 556T429 548Q409 548 392 555T362 575T342 605T334 643Q334 663 341 680T362 710T392 730T429 738Q448 738 465 731T496 711T516 681T524 643Z" />
<glyph unicode="&#xec;" glyph-name="igrave" d="M87 120H255V376H99V496H381V120H525V0H87V120ZM623 570H521L437 706H571L623 570Z" />
<glyph unicode="&#xed;" glyph-name="iacute" d="M87 120H255V376H99V496H381V120H525V0H87V120ZM319 706H453L369 570H267L319 706Z" />
<glyph unicode="&#xee;" glyph-name="icircumflex" d="M87 120H255V376H99V496H381V120H525V0H87V120ZM367 570L324 658H312L269 570H148L232 706H404L488 570H367Z" />
<glyph unicode="&#xef;" glyph-name="idieresis" d="M87 120H255V376H99V496H381V120H525V0H87V120ZM297 643Q297 623 290 606T269 576T239 556T202 548Q182 548 165 555T135 575T115 605T107 643Q107 663 114 680T135 710T165 730T202 738Q221 738 238 731T269
711T289 681T297 643ZM535 643Q535 623 528 606T507 576T477 556T440 548Q420 548 403 555T373 575T353 605T345 643Q345 663 352 680T373 710T403 730T440 738Q459 738 476 731T507 711T527 681T535 643Z" />
<glyph unicode="&#xf0;" glyph-name="eth" d="M358 723L345 681Q403 653 445 613T513 522T552 414T565 291Q565 215 545 158T490 63T407 5T301 -14Q249 -14 203 3T123 54T68 134T47 242V254Q47 315 65 362T113 443T183 493T267 510Q314 510 342 499T391 464H409Q395
499 370 525T310 570L298 532L200 561L213 603Q197 607 181 609T147 614L167 728Q188 726 208 723T248 714L260 752L358 723ZM302 106Q360 106 396 142T432 254Q432 317 396 353T302 390Q244 390 209 352T173 251V245Q173 179 208 143T302 106Z" />
<glyph unicode="&#xf1;" glyph-name="ntilde" d="M204 0H78V496H204V422H222Q239 464 277 487T366 510Q402 510 433 499T489 463T526 402T540 314V0H414V282Q414 335 389 365T315 396Q259 396 232 359T204 258V0ZM324 946Q332 937 340 930T362 922Q376 922 384
928T401 946L431 984L508 923L452 851Q434 828 413 818T366 807Q346 807 328 816T292 845Q284 854 276 861T254 869Q240 869 232 863T215 845L185 807L108 868L164 940Q183 964 204 974T250 984Q270 984 288 975T324 946Z" />
<glyph unicode="&#xf2;" glyph-name="ograve" d="M564 242Q564 180 543 133T486 53T404 3T306 -14Q255 -14 209 3T126 52T69 132T48 242V254Q48 315 69 362T126 443T208 493T306 510Q357 510 403 493T486 443T543 363T564 254V242ZM306 106Q333 106 357 115T399
141T427 182T438 238V258Q438 289 428 313T399 355T357 381T306 390Q279 390 255 381T213 355T185 314T174 258V238Q174 207 184 183T213 141T255 115T306 106ZM614 570H512L428 706H562L614 570Z" />
<glyph unicode="&#xf3;" glyph-name="oacute" d="M564 242Q564 180 543 133T486 53T404 3T306 -14Q255 -14 209 3T126 52T69 132T48 242V254Q48 315 69 362T126 443T208 493T306 510Q357 510 403 493T486 443T543 363T564 254V242ZM306 106Q333 106 357 115T399
141T427 182T438 238V258Q438 289 428 313T399 355T357 381T306 390Q279 390 255 381T213 355T185 314T174 258V238Q174 207 184 183T213 141T255 115T306 106ZM309 706H443L359 570H257L309 706Z" />
<glyph unicode="&#xf4;" glyph-name="ocircumflex" d="M564 242Q564 180 543 133T486 53T404 3T306 -14Q255 -14 209 3T126 52T69 132T48 242V254Q48 315 69 362T126 443T208 493T306 510Q357 510 403 493T486 443T543 363T564 254V242ZM306 106Q333 106 357 115T399
141T427 182T438 238V258Q438 289 428 313T399 355T357 381T306 390Q279 390 255 381T213 355T185 314T174 258V238Q174 207 184 183T213 141T255 115T306 106ZM355 570L312 658H300L257 570H136L220 706H392L476 570H355Z" />
<glyph unicode="&#xf5;" glyph-name="otilde" d="M564 242Q564 180 543 133T486 53T404 3T306 -14Q255 -14 209 3T126 52T69 132T48 242V254Q48 315 69 362T126 443T208 493T306 510Q357 510 403 493T486 443T543 363T564 254V242ZM306 106Q333 106 357 115T399
141T427 182T438 238V258Q438 289 428 313T399 355T357 381T306 390Q279 390 255 381T213 355T185 314T174 258V238Q174 207 184 183T213 141T255 115T306 106ZM322 946Q330 937 338 930T360 922Q374 922 382 928T399 946L429 984L506 923L450 851Q432 828 411
818T364 807Q344 807 326 816T290 845Q282 854 274 861T252 869Q238 869 230 863T213 845L183 807L106 868L162 940Q181 964 202 974T248 984Q268 984 286 975T322 946Z" />
<glyph unicode="&#xf6;" glyph-name="odieresis" d="M564 242Q564 180 543 133T486 53T404 3T306 -14Q255 -14 209 3T126 52T69 132T48 242V254Q48 315 69 362T126 443T208 493T306 510Q357 510 403 493T486 443T543 363T564 254V242ZM306 106Q333 106 357 115T399
141T427 182T438 238V258Q438 289 428 313T399 355T357 381T306 390Q279 390 255 381T213 355T185 314T174 258V238Q174 207 184 183T213 141T255 115T306 106ZM282 643Q282 623 275 606T254 576T224 556T187 548Q167 548 150 555T120 575T100 605T92 643Q92 663
99 680T120 710T150 730T187 738Q206 738 223 731T254 711T274 681T282 643ZM520 643Q520 623 513 606T492 576T462 556T425 548Q405 548 388 555T358 575T338 605T330 643Q330 663 337 680T358 710T388 730T425 738Q444 738 461 731T492 711T512 681T520 643Z"
/>
<glyph unicode="&#xf7;" glyph-name="divide" d="M97 407H515V293H97V407ZM392 159Q392 141 385 126T367 98T340 80T306 73Q288 73 273 79T246 98T227 125T220 159Q220 177 227 192T245 220T272 238T306 245Q324 245 339 239T366 220T385 193T392 159ZM392 541Q392
523 385 508T367 480T340 462T306 455Q288 455 273 461T246 480T227 507T220 541Q220 559 227 574T245 602T272 620T306 627Q324 627 339 621T366 602T385 575T392 541Z" />
<glyph unicode="&#xf8;" glyph-name="oslash" d="M564 242Q564 180 543 133T486 53T404 3T306 -14Q300 -14 294 -14T281 -13L262 -73L152 -39L171 20Q117 50 83 106T48 242V254Q48 315 69 362T126 443T208 493T306 510Q313 510 319 510T332 509L351 565L460 531L441
475Q495 444 529 388T564 254V242ZM174 238Q174 207 184 183T212 142L293 389Q242 385 208 351T174 258V238ZM438 258Q438 316 402 352L321 107Q371 112 404 146T438 238V258Z" />
<glyph unicode="&#xf9;" glyph-name="ugrave" d="M414 496H540V0H414V72H396Q363 -14 254 -14Q217 -14 185 -2T129 35T92 97T78 186V496H204V212Q204 159 229 130T304 100Q361 100 387 136T414 236V496ZM611 570H509L425 706H559L611 570Z" />
<glyph unicode="&#xfa;" glyph-name="uacute" d="M414 496H540V0H414V72H396Q363 -14 254 -14Q217 -14 185 -2T129 35T92 97T78 186V496H204V212Q204 159 229 130T304 100Q361 100 387 136T414 236V496ZM312 706H446L362 570H260L312 706Z" />
<glyph unicode="&#xfb;" glyph-name="ucircumflex" d="M414 496H540V0H414V72H396Q363 -14 254 -14Q217 -14 185 -2T129 35T92 97T78 186V496H204V212Q204 159 229 130T304 100Q361 100 387 136T414 236V496ZM610 570L567 658H555L512 570H391L475 706H647L731 570H610Z" />
<glyph unicode="&#xfc;" glyph-name="udieresis" d="M414 496H540V0H414V72H396Q363 -14 254 -14Q217 -14 185 -2T129 35T92 97T78 186V496H204V212Q204 159 229 130T304 100Q361 100 387 136T414 236V496ZM285 643Q285 623 278 606T257 576T227 556T190 548Q170
548 153 555T123 575T103 605T95 643Q95 663 102 680T123 710T153 730T190 738Q209 738 226 731T257 711T277 681T285 643ZM523 643Q523 623 516 606T495 576T465 556T428 548Q408 548 391 555T361 575T341 605T333 643Q333 663 340 680T361 710T391 730T428 738Q447
738 464 731T495 711T515 681T523 643Z" />
<glyph unicode="&#xfd;" glyph-name="yacute" d="M414 496H540V-122Q540 -156 519 -178T463 -200H168V-80H387Q414 -80 414 -50V72H396Q363 -14 254 -14Q217 -14 185 -2T129 35T92 97T78 186V496H204V212Q204 159 229 130T304 100Q361 100 387 136T414 236V496ZM312
706H446L362 570H260L312 706Z" />
<glyph unicode="&#xfe;" glyph-name="thorn" d="M306 106Q365 106 401 142T438 242V254Q438 317 402 353T306 390Q247 390 211 353T174 254V242Q174 181 210 144T306 106ZM174 -212H48V700H174V424H192Q212 465 250 487T347 510Q391 510 430 493T499 444T546 364T564
257V239Q564 178 547 131T501 52T433 3T347 -14Q313 -14 288 -7T245 12T214 39T192 72H174V-212Z" />
<glyph unicode="&#xff;" glyph-name="ydieresis" d="M414 496H540V-122Q540 -156 519 -178T463 -200H168V-80H387Q414 -80 414 -50V72H396Q363 -14 254 -14Q217 -14 185 -2T129 35T92 97T78 186V496H204V212Q204 159 229 130T304 100Q361 100 387 136T414 236V496ZM285
643Q285 623 278 606T257 576T227 556T190 548Q170 548 153 555T123 575T103 605T95 643Q95 663 102 680T123 710T153 730T190 738Q209 738 226 731T257 711T277 681T285 643ZM523 643Q523 623 516 606T495 576T465 556T428 548Q408 548 391 555T361 575T341 605T333
643Q333 663 340 680T361 710T391 730T428 738Q447 738 464 731T495 711T515 681T523 643Z" />
<glyph unicode="&#x2013;" glyph-name="endash" d="M67 332H545V218H67V332Z" />
<glyph unicode="&#x2014;" glyph-name="emdash" d="M6 332H606V218H6V332Z" />
<glyph unicode="&#x2018;" glyph-name="quoteleft" d="M401 502Q401 482 394 465T373 436T343 416T306 408Q286 408 269 415T239 435T219 465T211 502V624Q211 662 236 688T300 714H364V636H316Q289 636 289 606V594Q293 596 298 596T308 597Q350 597 375 571T401 502Z" />
<glyph unicode="&#x2019;" glyph-name="quoteright" d="M211 620Q211 639 218 656T239 686T269 706T306 714Q325 714 342 707T373 687T393 657T401 620V498Q401 460 376 434T312 408H248V486H296Q323 486 323 516V528Q315 525 306 525Q286 525 269 532T239 553T219
583T211 620Z" />
<glyph unicode="&#x201a;" glyph-name="quotesinglbase" d="M211 95Q211 114 218 131T239 161T269 181T306 189Q325 189 342 182T373 162T393 132T401 95V-27Q401 -65 376 -91T312 -117H248V-39H296Q323 -39 323 -9V3Q315 0 306 0Q286 0 269 7T239 28T219 58T211 95Z" />
<glyph unicode="&#x201c;" glyph-name="quotedblleft" d="M514 502Q514 482 507 465T486 436T456 416T419 408Q399 408 382 415T352 435T332 465T324 502V624Q324 662 349 688T413 714H477V636H429Q402 636 402 606V594Q406 596 411 596T421 597Q463 597 488 571T514
502ZM288 502Q288 482 281 465T260 436T230 416T193 408Q173 408 156 415T126 435T106 465T98 502V624Q98 662 123 688T187 714H251V636H203Q176 636 176 606V594Q180 596 185 596T195 597Q237 597 262 571T288 502Z" />
<glyph unicode="&#x201d;" glyph-name="quotedblright" d="M98 620Q98 639 105 656T126 686T156 706T193 714Q212 714 229 707T260 687T280 657T288 620V498Q288 460 263 434T199 408H135V486H183Q210 486 210 516V528Q202 525 193 525Q173 525 156 532T126 553T106
583T98 620ZM324 620Q324 639 331 656T352 686T382 706T419 714Q438 714 455 707T486 687T506 657T514 620V498Q514 460 489 434T425 408H361V486H409Q436 486 436 516V528Q428 525 419 525Q399 525 382 532T352 553T332 583T324 620Z" />
<glyph unicode="&#x201e;" glyph-name="quotedblbase" d="M98 95Q98 114 105 131T126 161T156 181T193 189Q212 189 229 182T260 162T280 132T288 95V-27Q288 -65 263 -91T199 -117H135V-39H183Q210 -39 210 -9V3Q202 0 193 0Q173 0 156 7T126 28T106 58T98 95ZM324
95Q324 114 331 131T352 161T382 181T419 189Q438 189 455 182T486 162T506 132T514 95V-27Q514 -65 489 -91T425 -117H361V-39H409Q436 -39 436 -9V3Q428 0 419 0Q399 0 382 7T352 28T332 58T324 95Z" />
<glyph unicode="&#x2022;" glyph-name="bullet" d="M162 350Q162 380 173 406T204 451T250 482T306 494Q336 494 362 483T407 452T438 406T450 350Q450 320 439 294T408 249T362 218T306 206Q276 206 250 217T205 248T174 294T162 350Z" />
<glyph unicode="&#x2039;" glyph-name="guilsinglleft" d="M426 0L180 152V344L426 496H432V354L258 257V239L432 142V0H426Z" />
<glyph unicode="&#x203a;" glyph-name="guilsinglright" d="M180 0V142L354 239V257L180 354V496H186L432 344V152L186 0H180Z" />
</font>
</defs>
</svg>
